Kingsman 2 The Golden Circle 2017 720p HD-TS Hindi[Complete New C...

  • Category Movies
  • Type Dubs/Dual Audio
  • Language Hindi
  • Total size 1,000.6 MB
  • Uploaded By ExtraMovies
  • Downloads 26136
  • Last checked 2 weeks ago
  • Date uploaded 3 weeks ago
  • Seeders 183
  • Leechers 108

Infohash : E58A873C50CB62CBB2E9E1F3266085180859667D


Movie Info

General
Unique ID                                : 237646219543496096998177166609964644062 (0xB2C8FF3DF16465FB9F0168B2A8D8B6DE)
Complete name                            : Kingsman 2 The Golden Circle 2017 720p HD-TS Hindi[Complete New Clean Audio] x264 AAC - ExtraMovies.mkv
Format                                   : Matroska
Format version                           : Version 4 / Version 2
File size                                : 1000 MiB
Duration                                 : 2 h 15 min
Overall bit rate                         : 1 225 kb/s
Movie name                               : ExtraMovies.ws - Kingsman 2 The Golden Circle 2017 720p HD-TS Hindi[Complete New Clean Audio] x264 AAC
Writing application                      : mkvmerge v10.0.0 ('To Drown In You') 64bit
Writing library                          : libebml v1.3.4 + libmatroska v1.4.5

Video
ID                                       : 1
Format                                   : AVC
Format/Info                              : Advanced Video Codec
Format profile                           : [email protected]
Format settings, CABAC                   : Yes
Format settings, ReFrames                : 8 frames
Codec ID                                 : V_MPEG4/ISO/AVC
Duration                                 : 2 h 15 min
Bit rate                                 : 900 kb/s
Width                                    : 1 280 pixels
Height                                   : 544 pixels
Display aspect ratio                     : 2.35:1
Frame rate mode                          : Constant
Frame rate                               : 23.976 (23976/1000) FPS
Color space                              : YUV
Chroma subsampling                       : 4:2:0
Bit depth                                : 8 bits
Scan type                                : Progressive
Bits/(Pixel*Frame)                       : 0.060
Stream size                              : 882 MiB (82%)
Title                                    : ExtraMovies.ws
Writing library                          : x264 core 142 r2479 dd79a61
Encoding settings                        : cabac=1 / ref=8 / deblock=1:0:0 / analyse=0x3:0x113 / me=umh / subme=9 / psy=1 / psy_rd=1.00:0.00 / mixed_ref=1 / me_range=16 / chroma_me=1 / trellis=2 / 8x8dct=1 / cqm=0 / deadzone=21,11 / fast_pskip=1 / chroma_qp_offset=-2 / threads=12 / lookahead_threads=1 / sliced_threads=0 / nr=0 / decimate=1 / interlaced=0 / bluray_compat=0 / constrained_intra=0 / bframes=3 / b_pyramid=2 / b_adapt=2 / b_bias=0 / direct=3 / weightb=1 / open_gop=0 / weightp=2 / keyint=240 / keyint_min=24 / scenecut=40 / intra_refresh=0 / rc_lookahead=60 / rc=2pass / mbtree=1 / bitrate=999 / ratetol=1.0 / qcomp=0.60 / qpmin=0 / qpmax=69 / qpstep=4 / cplxblur=20.0 / qblur=0.5 / vbv_maxrate=62500 / vbv_bufsize=78125 / nal_hrd=none / filler=0 / ip_ratio=1.40 / aq=1:1.00
Default                                  : Yes
Forced                                   : No
Color range                              : Limited
Color primaries                          : BT.709
Transfer characteristics                 : BT.709
Matrix coefficients                      : BT.709

Audio #1
ID                                       : 2
Format                                   : AAC
Format/Info                              : Advanced Audio Codec
Format profile                           : LC
Codec ID                                 : A_AAC
Duration                                 : 2 h 15 min
Bit rate                                 : 128 kb/s
Channel(s)                               : 2 channels
Channel positions                        : Front: L R
Sampling rate                            : 48.0 kHz
Frame rate                               : 23.976 (23976/1000) FPS
Compression mode                         : Lossy
Stream size                              : 125 MiB (10%)
Title                                    : ExtraMovies.ws
Language                                 : Hindi
Default                                  : Yes
Forced                                   : No













Note* Hindi Audio Is New And Completely Cleaned And Perfectly Synced With The Video.




Audio Source - OWN


Files:

Kingsman 2 The Golden Circle 2017 720p HD-TS Hindi[Complete New Clean Audio] x264 AAC -ExtraMovies
  • ExtraMovies.ws.txt (0.0 KB)
  • Kingsman 2 The Golden Circle 2017 720p HD-TS Hindi[Complete New Clean Audio] x264 AAC -ExtraMovies.mkv (1,000.6 MB)

Comments

Code:

  • udp://tracker.coppersurfer.tk:6969/announce